<?xml version="1.0" standalone="no"?>
<!DOCTYPE svg PUBLIC "-//W3C//DTD SVG 1.1//EN" "http://www.w3.org/Graphics/SVG/1.1/DTD/svg11.dtd">
<svg xmlns="http://www.w3.org/2000/svg">
<defs >
<font id="Prompt" horiz-adv-x="588" ><font-face
    font-family="Prompt"
    units-per-em="1000"
    panose-1="0 0 5 0 0 0 0 0 0 0"
    ascent="1090"
    descent="-422"
    alphabetic="0" />
<glyph unicode=" " glyph-name="space" horiz-adv-x="370" />
<glyph unicode="!" glyph-name="exclam" horiz-adv-x="209" d="M56 699H154V200H56V699ZM79 -15T62 2T45 44Q45 69 62 86T104 103Q129 103 146 86T164 44Q164 19 147 2T104 -15Q79 -15 62 2Z" />
<glyph unicode="&quot;" glyph-name="quotedbl" horiz-adv-x="338" d="M45 699H131V512H45V699ZM207 699H293V512H207V699Z" />
<glyph unicode="#" glyph-name="numbersign" horiz-adv-x="763" d="M141 170H45V250H163L215 432H86V512H237L290 699H380L327 512H538L591 699H682L629 512H718V432H607L555 250H677V170H533L485 0H394L442 170H231L183 0H93L141 170ZM464 250L516 432H305L253 250H464Z" />
<glyph unicode="$" glyph-name="dollar" horiz-adv-x="561" d="M241 -15Q185 -14 133 -4T45 24V115Q135 72 241 70V318Q239 318 238 319Q139 359 95 406T51 527Q51 601 102 650T241 711V802H329V713Q410 707 482 676V588Q405 623 329 627V383Q396 356 435 330T495
268T516 176Q516 98 469 51T329 -10V-103H241V-15ZM241 620Q200 609 179 586T157 527Q157 491 176 468T241 421V620ZM409 101T409 176Q409 213 391 236T329 280V79Q409 101 409 176Z" />
<glyph unicode="%" glyph-name="percent" horiz-adv-x="885" d="M181 347T139 371T73 438T48 530Q48 580 72 622T139 689T231 714Q281 714 323 690T390 623T415 530Q415 480 391 438T324 372T231 347Q181 347 139 371ZM588 699H687L300 0H201L588 699ZM277 421T307
452T338 528Q338 574 308 605T231 636Q185 636 155 605T124 528Q124 483 154 452T231 421Q277 421 307 452ZM606 -15T564 9T498 76T473 168Q473 218 497 260T564 327T656 352Q706 352 748 328T815 261T840 168Q840 118 816 76T749 10T656 -15Q606 -15 564 9ZM701
59T732 90T763 166Q763 212 732 243T655 274Q610 274 579 243T548 166Q548 121 579 90T655 59Q701 59 732 90Z" />
<glyph unicode="&amp;" glyph-name="ampersand" horiz-adv-x="773" d="M185 -15T115 34T45 174Q45 241 82 289T203 384Q153 430 130 467T107 551Q107 625 157 669T292 714Q345 714 386 693T451 634T474 551Q474 496 445 457T343 371L533 191Q551 220 557 259T564
356H653Q653 279 641 228T599 127L733 0H611L540 68Q495 25 435 5T297 -15Q185 -15 115 34ZM337 455T361 482T385 547Q385 588 360 612T292 637Q248 637 223 613T198 547Q198 515 217 489T281 421Q337 455 361 482ZM355 60T401 77T478 127L270 328Q203 295 173
260T143 174Q143 119 186 90T298 60Q355 60 401 77Z" />
<glyph unicode="&apos;" glyph-name="quotesingle" horiz-adv-x="176" d="M45 699H131V512H45V699Z" />
<glyph unicode="(" glyph-name="parenleft" horiz-adv-x="330" d="M121 -86T83 26T45 270Q45 401 83 513T193 714H300Q224 617 186 508T148 270Q148 141 186 32T300 -174H193Q121 -86 83 26Z" />
<glyph unicode=")" glyph-name="parenright" horiz-adv-x="330" d="M106 -77T144 32T182 270Q182 399 144 508T30 714H137Q209 626 247 514T285 270Q285 138 247 26T137 -174H30Q106 -77 144 32Z" />
<glyph unicode="*" glyph-name="asterisk" horiz-adv-x="436" d="M86 419L167 531L45 575L69 632L182 590V699H254V590L366 632L391 575L268 532L350 420L294 384L218 490L142 383L86 419Z" />
<glyph unicode="+" glyph-name="plus" horiz-adv-x="409" d="M163 256H45V339H163V457H245V339H364V256H245V137H163V256Z" />
<glyph unicode="," glyph-name="comma" horiz-adv-x="277" d="M126 53H232L137 -148H45L126 53Z" />
<glyph unicode="-" glyph-name="hyphen" horiz-adv-x="409" d="M45 339H364V256H45V339Z" />
<glyph unicode="." glyph-name="period" horiz-adv-x="185" d="M72 0T59 13T45 47Q45 67 58 81T92 95Q112 95 126 81T140 47Q140 27 126 14T92 0Q72 0 59 13Z" />
<glyph unicode="/" glyph-name="slash" horiz-adv-x="477" d="M330 714H432L147 0H45L330 714Z" />
<glyph unicode="0" glyph-name="zero" horiz-adv-x="672" d="M246 -15T181 29T80 155T45 349Q45 461 79 543T179 670T336 714Q427 714 492 670T592 544T627 349Q627 237 592 155T492 29T336 -15Q246 -15 181 29ZM425 75T475 148T526 348Q526 474 476 548T336 622Q246
622 196 548T146 348Q146 222 196 149T336 75Q425 75 475 148Z" />
<glyph unicode="1" glyph-name="one" horiz-adv-x="363" d="M196 589L45 480V577L210 699H298V0H196V589Z" />
<glyph unicode="2" glyph-name="two" horiz-adv-x="581" d="M45 67L196 212Q216 232 252 264Q309 316 339 348T388 416T407 495Q407 557 371 589T266 622Q219 622 170 605T77 555V653Q161 714 282 714Q390 714 450 657T510 500Q510 452 490 408T432 322T332 218L196
85H536V0H45V67Z" />
<glyph unicode="3" glyph-name="three" horiz-adv-x="574" d="M197 -15T142 -6T45 23V107Q138 65 245 65Q337 65 381 98T426 194Q426 258 380 285T240 313H158V395H238Q313 395 359 425T405 515Q405 573 367 603T257 633Q201 633 156 620T63 577V661Q151 714 269
714Q386 714 447 662T508 518Q508 462 478 420T388 355Q456 339 492 297T529 191Q529 96 464 41T258 -15Q197 -15 142 -6Z" />
<glyph unicode="4" glyph-name="four" horiz-adv-x="601" d="M365 172H25V237L364 699H468V252H576V172H468V0H365V172ZM377 252V577L140 252H377Z" />
<glyph unicode="5" glyph-name="five" horiz-adv-x="570" d="M185 -15T133 -4T45 28V119Q86 94 138 81T237 67Q328 67 375 105T422 219Q422 290 379 327T249 365Q213 365 174 358T103 339L58 365L84 699H475V613H177L162 433Q224 446 288 446Q399 446 462 384T525
219Q525 106 454 46T240 -15Q185 -15 133 -4Z" />
<glyph unicode="6" glyph-name="six" horiz-adv-x="609" d="M233 -15T174 19T80 121T45 284Q45 492 130 603T376 714Q431 714 474 702V616Q439 631 384 631Q170 631 149 374Q179 412 228 431T337 451Q405 451 456 423T535 343T564 222Q564 154 534 100T445 16T308
-15Q233 -15 174 19ZM378 64T420 106T463 219Q463 289 421 330T308 371Q265 371 230 352T174 298T153 217Q153 176 172 141T227 85T308 64Q378 64 420 106Z" />
<glyph unicode="7" glyph-name="seven" horiz-adv-x="545" d="M406 613H35V699H510V624L229 0H129L406 613Z" />
<glyph unicode="8" glyph-name="eight" horiz-adv-x="602" d="M183 -15T114 38T45 191Q45 258 80 303T173 365Q125 385 97 426T69 523Q69 611 132 662T301 714Q406 714 469 663T532 523Q532 468 504 427T428 365Q486 349 521 304T557 191Q557 92 488 39T301 -15Q183
-15 114 38ZM360 396T397 428T434 514Q434 568 398 602T301 636Q241 636 205 602T168 514Q168 461 205 429T301 396Q360 396 397 428ZM373 59T414 96T455 198Q455 260 413 296T301 332Q232 332 189 296T146 198Q146 133 187 96T301 59Q373 59 414 96Z" />
<glyph unicode="9" glyph-name="nine" horiz-adv-x="609" d="M178 -15T135 -3V82Q174 67 225 67Q440 67 461 324Q431 286 383 267T274 248Q207 248 155 276T74 356T45 477Q45 545 75 599T164 683T301 714Q377 714 436 680T530 579T564 415Q564 207 479 96T233
-15Q178 -15 135 -3ZM367 328T411 370T456 481Q456 522 437 557T382 613T301 634Q231 634 189 592T146 480Q146 410 188 369T301 328Q367 328 411 370Z" />
<glyph unicode=":" glyph-name="colon" horiz-adv-x="200" d="M77 371T61 387T45 426Q45 449 61 465T100 482Q123 482 139 466T155 426Q155 404 139 388T100 371Q77 371 61 387ZM77 20T61 36T45 75Q45 98 61 114T100 131Q123 131 139 115T155 75Q155 53 139 37T100
20Q77 20 61 36Z" />
<glyph unicode=";" glyph-name="semicolon" horiz-adv-x="277" d="M150 371T134 387T118 426Q118 449 134 465T173 482Q196 482 212 466T228 426Q228 404 212 388T173 371Q150 371 134 387ZM126 53H232L137 -148H45L126 53Z" />
<glyph unicode="&lt;" glyph-name="less" horiz-adv-x="544" d="M45 287V360L499 583V481L170 323L499 165V64L45 287Z" />
<glyph unicode="=" glyph-name="equal" horiz-adv-x="524" d="M45 454H479V372H45V454ZM45 258H479V177H45V258Z" />
<glyph unicode="&gt;" glyph-name="greater" horiz-adv-x="544" d="M45 165L373 323L45 481V583L499 360V287L45 64V165Z" />
<glyph unicode="?" glyph-name="question" horiz-adv-x="515" d="M166 220Q166 281 189 322T267 401Q307 429 327 445T358 482T370 531Q370 576 334 602T230 628Q130 628 45 588V676Q85 693 132 703T230 714Q340 714 405 665T470 531Q470 479 443 442T358 363Q316
333 298 316T272 277T264 219V199H166V220ZM189 -15T172 2T155 44Q155 69 172 86T214 103Q239 103 256 86T274 44Q274 19 257 2T214 -15Q189 -15 172 2Z" />
<glyph unicode="@" glyph-name="at" horiz-adv-x="910" d="M328 -76T237 -35T96 86T45 282Q45 408 98 506T251 659T482 714Q663 714 764 625T865 371Q865 258 819 184T687 109Q650 109 619 128T577 181Q554 146 516 128T429 109Q352 109 305 154T257 286Q257 353
284 407T363 492T482 524Q522 524 563 516T636 492L623 260Q621 222 638 202T685 181Q733 181 753 230T773 371Q773 504 701 569T482 635Q378 635 300 593T180 470T137 282Q137 145 217 73T450 1Q554 1 640 30V-44Q557 -76 450 -76Q328 -76 237 -35ZM488 183T515
210T544 277L554 437Q524 450 480 450Q421 450 385 406T349 293Q349 239 372 211T439 183Q488 183 515 210Z" />
<glyph unicode="A" glyph-name="A" horiz-adv-x="746" d="M324 699H422L701 0H597L527 174H218L150 0H45L324 699ZM499 259L373 586L247 259H499Z" />
<glyph unicode="B" glyph-name="B" horiz-adv-x="649" d="M65 699H386Q479 699 530 651T581 511Q581 459 557 420T492 361Q604 328 604 198Q604 137 578 93T505 24T403 0H65V699ZM373 399Q422 399 450 426T478 506Q478 567 451 591T366 616H167V399H373ZM380 83Q439
83 470 109T501 198Q501 261 469 288T371 315H167V83H380Z" />
<glyph unicode="C" glyph-name="C" horiz-adv-x="710" d="M307 -15T223 30T92 157T45 349Q45 458 92 541T223 669T415 714Q559 714 656 641V543Q569 620 424 620Q343 620 281 587T183 493T148 349Q148 267 183 205T281 110T424 77Q498 77 556 96T665 159V60Q575
-15 415 -15Q307 -15 223 30Z" />
<glyph unicode="D" glyph-name="D" horiz-adv-x="703" d="M65 699H290Q403 699 486 657T613 537T658 353Q658 179 558 90T276 0H65V699ZM275 85Q415 85 485 154T555 353Q555 473 487 543T291 613H167V85H275Z" />
<glyph unicode="E" glyph-name="E" horiz-adv-x="566" d="M65 699H526V613H167V392H435V307H167V85H526V0H65V699Z" />
<glyph unicode="F" glyph-name="F" horiz-adv-x="551" d="M65 699H526V613H167V390H435V309H167V0H65V699Z" />
<glyph unicode="G" glyph-name="G" horiz-adv-x="716" d="M307 -15T223 30T92 157T45 349Q45 458 92 541T223 669T415 714Q560 714 656 642V544Q569 620 424 620Q345 620 282 587T184 493T148 349Q148 267 183 205T280 110T420 77Q511 77 569 114V297H436V380H671V60Q624
21 561 3T415 -15Q307 -15 223 30Z" />
<glyph unicode="H" glyph-name="H" horiz-adv-x="699" d="M65 699H167V399H532V699H634V0H532V313H167V0H65V699Z" />
<glyph unicode="I" glyph-name="I" horiz-adv-x="233" d="M65 699H168V0H65V699Z" />
<glyph unicode="J" glyph-name="J" horiz-adv-x="373" d="M103 -15T72 -10T25 2V89Q40 83 63 79T108 75Q211 75 211 175V699H313V168Q313 82 264 34T131 -15Q103 -15 72 -10Z" />
<glyph unicode="K" glyph-name="K" horiz-adv-x="670" d="M65 699H167V0H65V699ZM172 356L491 699H615L296 356L635 0H511L172 356Z" />
<glyph unicode="L" glyph-name="L" horiz-adv-x="546" d="M65 699H167V85H521V0H65V699Z" />
<glyph unicode="M" glyph-name="M" horiz-adv-x="832" d="M65 699H167L416 154L665 699H767V0H668V497L441 0H391L163 497V0H65V699Z" />
<glyph unicode="N" glyph-name="N" horiz-adv-x="686" d="M65 699H162L518 172V699H621V0H523L167 527V0H65V699Z" />
<glyph unicode="O" glyph-name="O" horiz-adv-x="826" d="M309 -15T225 30T93 159T45 349Q45 456 93 539T225 668T413 714Q517 714 601 668T733 539T781 349Q781 242 733 159T601 31T413 -15Q309 -15 225 30ZM487 77T547 110T643 205T678 349Q678 430 644 491T549
586T415 620Q340 620 280 587T184 492T148 349Q148 267 183 206T278 111T413 77Q487 77 547 110Z" />
<glyph unicode="P" glyph-name="P" horiz-adv-x="603" d="M65 699H334Q447 699 512 643T578 482Q578 376 513 322T334 267H167V0H65V699ZM323 352Q393 352 434 381T475 482Q475 554 434 583T323 613H167V352H323Z" />
<glyph unicode="Q" glyph-name="Q" horiz-adv-x="817" d="M317 0T230 43T94 165T45 351Q45 458 93 540T225 668T413 714Q517 714 601 669T733 541T781 351Q781 266 743 196T641 88H792V0H431Q317 0 230 43ZM490 93T550 123T643 211T677 351Q677 431 642 492T547
587T413 620Q339 620 279 587T183 493T148 351Q148 269 181 211T275 123T413 93Q490 93 550 123Z" />
<glyph unicode="R" glyph-name="R" horiz-adv-x="623" d="M65 699H346Q458 699 518 645T578 487Q578 410 537 357T421 284L575 0H469L320 276H167V0H65V699ZM329 362Q396 362 435 393T475 487Q475 555 437 584T329 613H167V362H329Z" />
<glyph unicode="S" glyph-name="S" horiz-adv-x="561" d="M199 -15T141 -5T45 24V116Q141 71 252 71Q408 71 408 176Q408 212 391 234T342 272T238 318Q139 358 95 406T51 527Q51 582 81 624T165 690T289 714Q346 714 392 705T482 676V588Q395 627 306 627Q234
627 196 601T158 527Q158 494 174 472T223 432T320 388Q391 359 432 333T494 270T516 176Q516 85 451 35T259 -15Q199 -15 141 -5Z" />
<glyph unicode="T" glyph-name="T" horiz-adv-x="587" d="M242 613H25V699H562V613H345V0H242V613Z" />
<glyph unicode="U" glyph-name="U" horiz-adv-x="697" d="M206 -15T133 58T60 261V699H162V257Q162 168 212 123T349 77Q435 77 485 122T535 257V699H637V261Q637 133 564 59T349 -15Q206 -15 133 58Z" />
<glyph unicode="V" glyph-name="V" horiz-adv-x="746" d="M45 699H153L373 139L593 699H701L422 0H324L45 699Z" />
<glyph unicode="W" glyph-name="W" horiz-adv-x="1001" d="M45 699H151L307 168L461 699H541L694 168L850 699H956L752 0H655L500 528L346 0H249L45 699Z" />
<glyph unicode="X" glyph-name="X" horiz-adv-x="732" d="M307 355L55 699H172L366 435L560 699H677L424 355L686 0H569L366 276L163 0H46L307 355Z" />
<glyph unicode="Y" glyph-name="Y" horiz-adv-x="700" d="M299 265L45 699H154L349 362L547 699H655L398 265V0H299V265Z" />
<glyph unicode="Z" glyph-name="Z" horiz-adv-x="618" d="M45 69L432 613H54V699H556V629L170 85H573V0H45V69Z" />
<glyph unicode="[" glyph-name="bracketleft" horiz-adv-x="305" d="M45 787H270V701H147V-11H270V-96H45V787Z" />
<glyph unicode="\" glyph-name="backslash" horiz-adv-x="474" d="M45 714H144L429 0H330L45 714Z" />
<glyph unicode="]" glyph-name="bracketright" horiz-adv-x="305" d="M35 -11H157V701H35V787H260V-96H35V-11Z" />
<glyph unicode="^" glyph-name="asciicircum" horiz-adv-x="548" d="M234 719H314L503 390H405L274 622L142 390H45L234 719Z" />
<glyph unicode="_" glyph-name="underscore" horiz-adv-x="487" d="M45 0H442V-88H45V0Z" />
<glyph unicode="`" glyph-name="grave" horiz-adv-x="265" d="M45 742H152L220 570H128L45 742Z" />
<glyph unicode="a" glyph-name="a" horiz-adv-x="569" d="M150 -15T98 29T45 150Q45 230 95 273T239 317Q338 317 407 277V302Q407 359 373 386T264 414Q220 414 179 406T104 382V464Q134 478 182 486T275 495Q394 495 451 443T509 297V0H414V54Q383 20 341 3T237
-15Q150 -15 98 29ZM310 62T349 81T407 134V199Q342 241 262 241Q204 241 176 219T147 150Q147 62 262 62Q310 62 349 81Z" />
<glyph unicode="b" glyph-name="b" horiz-adv-x="660" d="M298 -15T251 5T163 70V0H65V739H166V416Q199 455 251 475T363 495Q435 495 492 463T582 372T615 239Q615 163 583 106T493 17T363 -15Q298 -15 251 5ZM389 65T428 86T490 148T513 239Q513 290 491 330T429
392T340 414Q279 414 231 381T166 293V185Q185 130 231 98T340 65Q389 65 428 86Z" />
<glyph unicode="c" glyph-name="c" horiz-adv-x="547" d="M238 -15T176 15T80 102T45 239Q45 318 79 375T176 464T320 495Q430 495 496 452V369Q431 414 330 414Q248 414 198 370T147 239Q147 153 197 109T328 65Q429 65 502 113V31Q467 7 423 -4T318 -15Q238
-15 176 15Z" />
<glyph unicode="d" glyph-name="d" horiz-adv-x="660" d="M225 -15T168 16T78 105T45 239Q45 314 77 372T167 462T297 495Q427 495 494 416V739H595V0H497V70Q457 26 410 6T297 -15Q225 -15 168 16ZM382 65T428 97T494 185V293Q477 348 430 381T320 414Q271 414
232 392T170 330T147 239Q147 188 169 148T231 87T320 65Q382 65 428 97Z" />
<glyph unicode="e" glyph-name="e" horiz-adv-x="608" d="M196 -15T121 51T45 239Q45 357 112 426T305 495Q388 495 446 464T533 377T563 250V200H141Q146 132 198 99T341 65Q387 65 434 73T517 96V15Q485 2 433 -6T329 -15Q196 -15 121 51ZM468 271Q466 339 424
376T303 414Q227 414 185 375T141 271H468Z" />
<glyph unicode="f" glyph-name="f" horiz-adv-x="353" d="M98 402H25V480H98V574Q98 657 145 700T271 744Q312 744 348 732V648Q320 661 290 661Q243 661 221 639T199 568V480H319V402H199V0H98V402Z" />
<glyph unicode="g" glyph-name="g" horiz-adv-x="660" d="M267 -230T221 -222T142 -199V-116Q217 -150 316 -150Q409 -150 451 -110T494 13V64Q428 -15 300 -15Q227 -15 169 17T78 107T45 240Q45 316 77 373T167 463T297 495Q364 495 410 476T497 411V480H595V24Q595
-99 527 -164T316 -230Q267 -230 221 -222ZM382 65T429 98T494 186V294Q475 350 429 382T320 414Q271 414 232 393T170 331T147 240Q147 188 169 149T231 87T320 65Q382 65 429 98Z" />
<glyph unicode="h" glyph-name="h" horiz-adv-x="600" d="M65 739H166V414Q235 495 350 495Q446 495 493 444T540 307V0H439V297Q439 414 327 414Q279 414 238 392T166 323V0H65V739Z" />
<glyph unicode="i" glyph-name="i" horiz-adv-x="250" d="M99 574T82 591T65 633Q65 658 82 675T124 692Q150 692 167 675T185 633Q185 608 168 591T124 574Q99 574 82 591ZM73 480H176V0H73V480Z" />
<glyph unicode="j" glyph-name="j" horiz-adv-x="250" d="M99 574T82 591T65 633Q65 658 82 675T125 692Q150 692 167 675T185 633Q185 608 168 591T125 574Q99 574 82 591ZM-39 -231T-70 -220V-137Q-44 -149 -10 -149Q35 -149 54 -128T74 -58V480H176V-65Q176
-148 130 -189T6 -231Q-39 -231 -70 -220Z" />
<glyph unicode="k" glyph-name="k" horiz-adv-x="569" d="M65 739H166V0H65V739ZM167 243L388 480H511L289 243L534 0H411L167 243Z" />
<glyph unicode="l" glyph-name="l" horiz-adv-x="231" d="M65 739H166V0H65V739Z" />
<glyph unicode="m" glyph-name="m" horiz-adv-x="867" d="M65 480H161V411Q195 453 238 474T327 495Q385 495 419 476T469 416Q501 455 547 475T641 495Q729 495 768 451T807 319V0H709V306Q709 365 687 389T612 414Q536 414 488 348Q490 333 490 299V0H392V306Q392
365 372 389T300 414Q224 414 164 328V0H65V480Z" />
<glyph unicode="n" glyph-name="n" horiz-adv-x="600" d="M65 480H163V411Q197 454 246 474T350 495Q446 495 493 444T540 307V0H439V297Q439 414 327 414Q279 414 238 392T166 323V0H65V480Z" />
<glyph unicode="o" glyph-name="o" horiz-adv-x="637" d="M237 -15T176 15T80 103T45 239Q45 316 79 374T175 463T318 495Q399 495 461 464T557 374T592 239Q592 161 558 104T461 16T318 -15Q237 -15 176 15ZM396 65T442 113T488 239Q488 320 442 367T318 414Q240
414 194 367T148 239Q148 161 194 113T318 65Q396 65 442 113Z" />
<glyph unicode="p" glyph-name="p" horiz-adv-x="660" d="M65 480H163V409Q237 495 363 495Q435 495 492 463T582 374T615 240Q615 165 583 107T493 17T363 -15Q303 -15 251 5T166 64V-219H65V480ZM389 65T428 86T490 148T513 240Q513 292 491 331T429 392T340
414Q279 414 233 382T166 294V186Q183 131 231 98T340 65Q389 65 428 86Z" />
<glyph unicode="q" glyph-name="q" horiz-adv-x="660" d="M494 64Q461 25 409 5T297 -15Q224 -15 167 17T78 107T45 240Q45 316 77 373T167 463T297 495Q423 495 497 409V480H595V-219H494V64ZM381 65T429 98T494 186V294Q474 350 428 382T320 414Q271 414 232
393T170 332T147 240Q147 188 169 148T231 87T320 65Q381 65 429 98Z" />
<glyph unicode="r" glyph-name="r" horiz-adv-x="399" d="M65 480H163V394Q193 438 247 459T374 480V401Q297 401 242 376T166 297V0H65V480Z" />
<glyph unicode="s" glyph-name="s" horiz-adv-x="489" d="M192 -15T136 -3T48 31V117Q87 94 138 80T237 65Q291 65 316 78T341 120Q341 142 330 155T291 180T208 206Q149 223 115 240T63 285T45 355Q45 424 99 459T246 495Q294 495 340 486T414 461V377Q385 394
343 404T256 414Q203 414 175 401T147 355Q147 334 159 321T197 299T282 274Q373 249 408 215T444 121Q444 59 393 22T242 -15Q192 -15 136 -3Z" />
<glyph unicode="t" glyph-name="t" horiz-adv-x="374" d="M177 -15T138 27T98 146V402H25V480H98V624H200V480H318V402H200V153Q200 105 218 85T286 65Q315 65 344 78V-2Q306 -15 250 -15Q177 -15 138 27Z" />
<glyph unicode="u" glyph-name="u" horiz-adv-x="600" d="M159 -15T110 37T60 176V480H161V180Q161 65 276 65Q377 65 434 156V480H535V0H437V68Q403 25 357 5T256 -15Q159 -15 110 37Z" />
<glyph unicode="v" glyph-name="v" horiz-adv-x="586" d="M45 480H152L293 135L434 480H541L337 0H249L45 480Z" />
<glyph unicode="w" glyph-name="w" horiz-adv-x="818" d="M45 480H148L256 124L363 480H454L561 124L669 480H773L617 0H520L409 358L298 0H200L45 480Z" />
<glyph unicode="x" glyph-name="x" horiz-adv-x="617" d="M251 251L63 480H178L308 321L439 480H554L366 251L572 0H458L308 181L159 0H45L251 251Z" />
<glyph unicode="y" glyph-name="y" horiz-adv-x="587" d="M113 -198T77 -187V-108Q103 -118 141 -118Q176 -118 196 -101T232 -44L255 12L45 480H149L309 111L458 480H562L346 -54Q316 -129 275 -163T167 -198Q113 -198 77 -187Z" />
<glyph unicode="z" glyph-name="z" horiz-adv-x="499" d="M45 65L318 402H51V480H444V414L171 78H454V0H45V65Z" />
<glyph unicode="{" glyph-name="braceleft" horiz-adv-x="343" d="M164 -97T143 -73T121 -1V225Q121 301 55 301H35V389H55Q121 389 121 465V691Q121 739 142 763T204 787H298V701H261Q240 701 232 691T223 656V452Q223 367 157 346V344Q223 325 223 238V34Q223
10 231 0T261 -11H298V-97H204Q164 -97 143 -73Z" />
<glyph unicode="|" glyph-name="bar" horiz-adv-x="192" d="M45 812H147V-144H45V812Z" />
<glyph unicode="}" glyph-name="braceright" horiz-adv-x="343" d="M45 -11H82Q103 -11 111 -1T120 34V238Q120 325 186 344V346Q120 367 120 452V656Q120 680 112 690T82 701H45V787H139Q179 787 200 763T222 691V465Q222 389 288 389H308V301H288Q222 301 222
225V-1Q222 -49 201 -73T139 -97H45V-11Z" />
<glyph unicode="~" glyph-name="asciitilde" horiz-adv-x="550" d="M363 275T336 283T273 306Q237 321 211 328T157 336Q122 336 95 322T45 276V371Q59 396 89 409T157 423Q187 423 214 415T280 391Q321 375 343 369T392 362Q427 362 455 376T505 422V327Q490
302 460 289T392 275Q363 275 336 283Z" />
<glyph unicode="&#xa0;" glyph-name="uni00A0" horiz-adv-x="370" />
<glyph unicode="&#xa1;" glyph-name="exclamdown" horiz-adv-x="209" d="M79 432T62 449T45 491Q45 516 62 533T104 550Q129 550 146 533T164 491Q164 466 147 449T104 432Q79 432 62 449ZM56 332H154V-167H56V332Z" />
<glyph unicode="&#xa2;" glyph-name="cent" horiz-adv-x="547" d="M274 -12Q169 -1 107 65T45 239Q45 345 107 412T274 492V580H363V493Q442 487 496 452V369Q441 407 363 413V66Q442 73 502 113V31Q446 -7 363 -13V-101H274V-12ZM274 408Q215 394 181 352T147
239Q147 169 181 126T274 70V408Z" />
<glyph unicode="&#xa3;" glyph-name="sterling" horiz-adv-x="491" d="M45 82H125V336H51V418H125V532Q125 618 181 666T321 714Q361 714 399 702V619Q374 630 342 630Q287 630 258 604T229 527V418H404V336H229V82H446V0H45V82Z" />
<glyph unicode="&#xa4;" glyph-name="currency" horiz-adv-x="590" d="M45 107L130 170Q97 215 97 273Q97 332 130 377L45 440L89 495L176 425Q226 466 295 466Q363 466 413 425L501 495L545 440L460 377Q493 330 493 273Q493 217 460 170L545 107L501 52L413
120Q362 80 295 80Q228 80 177 120L89 52L45 107ZM344 156T377 190T411 273Q411 322 377 356T295 391Q246 391 213 357T179 273Q179 224 212 190T295 156Q344 156 377 190Z" />
<glyph unicode="&#xa5;" glyph-name="yen" horiz-adv-x="701" d="M299 105H161V174H299V247H161V315H269L45 699H154L349 362L547 699H655L428 315H538V247H399V174H538V105H399V0H299V105Z" />
<glyph unicode="&#xa6;" glyph-name="brokenbar" horiz-adv-x="193" d="M45 812H148V429H45V812ZM45 238H148V-144H45V238Z" />
<glyph unicode="&#xa7;" glyph-name="section" horiz-adv-x="561" d="M199 -170T141 -160T45 -131V-39Q141 -84 252 -84Q329 -84 367 -57T406 21Q406 57 390 80T341 120T238 164Q140 202 96 250T51 372Q51 415 71 447Q51 480 51 527Q51 582 81 624T165 690T289
714Q346 714 392 705T482 676V587Q438 608 395 617T303 627Q237 627 199 599T160 525Q160 495 176 473T225 431T320 385Q396 353 435 329T495 270T516 176Q516 136 498 100Q516 64 516 21Q516 -70 451 -120T259 -170Q199 -170 141 -160ZM433 169T433 184Q433 217
416 240T367 280T275 321Q233 337 197 357T144 396Q138 380 138 360Q138 318 173 289T287 228Q342 205 376 187T429 149Q433 169 433 184Z" />
<glyph unicode="&#xa8;" glyph-name="dieresis" horiz-adv-x="433" d="M80 585T63 602T45 643Q45 667 62 684T103 701Q126 701 143 684T161 643Q161 619 144 602T103 585Q80 585 63 602ZM307 585T290 602T272 643Q272 667 289 684T330 701Q353 701 370 684T388
643Q388 619 371 602T330 585Q307 585 290 602Z" />
<glyph unicode="&#xa9;" glyph-name="copyright" horiz-adv-x="823" d="M310 -15T226 31T94 159T45 349Q45 456 93 539T226 668T412 714Q514 714 597 668T729 539T778 349Q778 242 730 160T598 31T412 -15Q310 -15 226 31ZM489 72T551 105T650 201T686 349Q686
433 650 496T552 592T412 626Q333 626 271 593T173 497T137 349Q137 264 173 201T271 105T412 72Q489 72 551 105ZM343 118T291 145T209 225T179 348Q179 419 209 471T291 550T411 578Q512 578 570 539V463Q512 504 421 504Q348 504 307 465T266 348Q266 271 306
232T418 193Q511 193 576 237V161Q512 118 409 118Q343 118 291 145Z" />
<glyph unicode="&#xaa;" glyph-name="ordfeminine" horiz-adv-x="423" d="M121 349T83 380T45 466Q45 522 82 553T185 585Q253 585 303 557V577Q303 617 279 635T201 653Q136 653 87 631V691Q108 701 142 707T210 714Q295 714 336 677T378 573V360H308V395Q264
349 182 349Q121 349 83 380ZM234 406T261 419T303 456V499Q260 528 200 528Q160 528 141 513T121 466Q121 406 199 406Q234 406 261 419Z" />
<glyph unicode="&#xab;" glyph-name="guillemotleft" horiz-adv-x="599" d="M45 308V338L277 535L327 471L151 323L327 176L277 112L45 308ZM272 308V338L504 535L554 471L378 323L554 176L504 112L272 308Z" />
<glyph unicode="&#xac;" glyph-name="logicalnot" horiz-adv-x="440" d="M300 258H45V338H395V134H300V258Z" />
<glyph unicode="&#xad;" glyph-name="uni00AD" horiz-adv-x="409" d="M45 339H364V256H45V339Z" />
<glyph unicode="&#xae;" glyph-name="registered" horiz-adv-x="823" d="M310 -15T226 31T94 159T45 349Q45 456 93 539T226 668T412 714Q514 714 597 668T729 539T778 349Q778 242 730 160T598 31T412 -15Q310 -15 226 31ZM489 72T551 105T650 201T686 349Q686
433 650 496T552 592T412 626Q333 626 271 593T173 497T137 349Q137 264 173 201T271 105T412 72Q489 72 551 105ZM259 575H436Q509 575 550 542T591 442Q591 392 562 358T478 313L572 128H491L398 310H338V128H259V575ZM429 373Q474 373 495 389T517 442Q517 484
497 497T429 511H338V373H429Z" />
<glyph unicode="&#xaf;" glyph-name="overscore" horiz-adv-x="401" d="M45 673H356V604H45V673Z" />
<glyph unicode="&#xb0;" glyph-name="degree" horiz-adv-x="378" d="M150 439T117 458T65 511T45 583Q45 622 64 655T117 707T189 727Q228 727 261 708T313 655T333 583Q333 544 314 511T261 459T189 439Q150 439 117 458ZM220 506T242 528T265 583Q265 614 243
636T188 659Q157 659 135 637T112 583Q112 552 134 529T188 506Q220 506 242 528Z" />
<glyph unicode="&#xb1;" glyph-name="plusminus" horiz-adv-x="409" d="M163 266H45V349H163V467H245V349H364V266H245V147H163V266ZM45 82H364V0H45V82Z" />
<glyph unicode="&#xb2;" glyph-name="uni00B2" horiz-adv-x="341" d="M45 420L118 483Q123 488 133 496Q181 536 198 556T216 601Q216 644 162 644Q138 644 109 636T60 614V681Q79 693 109 701T166 709Q228 709 260 680T293 605Q293 579 284 560T259 525T208 480L149
430H296V370H45V420Z" />
<glyph unicode="&#xb3;" glyph-name="uni00B3" horiz-adv-x="345" d="M87 360T45 378V438Q65 428 93 423T147 417Q220 417 220 462Q220 486 204 496T147 507H101V564H146Q211 564 211 607Q211 650 144 650Q95 650 52 624V683Q96 709 165 709Q225 709 258 684T291
615Q291 558 235 536Q300 523 300 457Q300 412 264 386T162 360Q87 360 45 378Z" />
<glyph unicode="&#xb4;" glyph-name="acute" horiz-adv-x="265" d="M114 753H220L137 581H45L114 753Z" />
<glyph unicode="&#xb6;" glyph-name="paragraph" horiz-adv-x="741" d="M352 266H291Q220 266 165 294T77 377T45 511Q45 633 115 697T304 762H696V-134H593V676H454V-134H352V266Z" />
<glyph unicode="&#xb7;" glyph-name="middot" horiz-adv-x="185" d="M72 247T59 261T45 295Q45 315 59 329T92 343Q112 343 126 329T140 295Q140 275 126 261T92 247Q72 247 59 261Z" />
<glyph unicode="&#xb8;" glyph-name="cedilla" horiz-adv-x="306" d="M70 -248T45 -237V-179Q56 -184 72 -187T103 -190Q166 -190 166 -144Q166 -89 65 -89L99 0H191L169 -56Q214 -62 237 -86T261 -151Q261 -195 225 -221T127 -248Q70 -248 45 -237Z" />
<glyph unicode="&#xb9;" glyph-name="uni00B9" horiz-adv-x="233" d="M131 620L45 558V630L137 699H208V370H131V620Z" />
<glyph unicode="&#xba;" glyph-name="ordmasculine" horiz-adv-x="482" d="M152 348T99 397T45 531Q45 613 99 663T241 714Q328 714 382 664T437 531Q437 447 383 398T241 348Q152 348 99 397ZM293 411T325 444T357 531Q357 586 326 618T241 650Q188 650 157 618T125
531Q125 477 157 444T241 411Q293 411 325 444Z" />
<glyph unicode="&#xbb;" glyph-name="guillemotright" horiz-adv-x="599" d="M45 176L221 323L45 471L95 535L327 338V308L95 112L45 176ZM272 176L448 323L272 471L322 535L554 338V308L322 112L272 176Z" />
<glyph unicode="&#xbc;" glyph-name="onequarter" horiz-adv-x="715" d="M131 620L45 558V630L137 699H208V370H131V620ZM493 699H597L210 0H106L493 699ZM546 72H388V126L539 329H623V129H670V72H623V0H546V72ZM557 129V255L461 129H557Z" />
<glyph unicode="&#xbd;" glyph-name="onehalf" horiz-adv-x="738" d="M131 620L45 558V630L137 699H208V370H131V620ZM493 699H597L210 0H106L493 699ZM440 50L514 113Q571 162 591 184T611 232Q611 275 557 275Q534 275 504 267T455 245V312Q474 324 504 332T562
340Q624 340 656 311T688 236Q688 210 679 191T654 157T603 110L545 60H693V0H440V50Z" />
<glyph unicode="&#xbe;" glyph-name="threequarters" horiz-adv-x="735" d="M87 360T45 378V438Q65 428 93 423T147 417Q220 417 220 462Q220 486 204 496T147 507H101V564H146Q211 564 211 607Q211 650 144 650Q95 650 52 624V683Q96 709 165 709Q225 709 258
684T291 615Q291 558 235 536Q300 523 300 457Q300 412 264 386T162 360Q87 360 45 378ZM513 699H617L230 0H126L513 699ZM566 72H408V126L559 329H643V129H690V72H643V0H566V72ZM577 129V255L481 129H577Z" />
<glyph unicode="&#xbf;" glyph-name="questiondown" horiz-adv-x="515" d="M275 432T258 449T240 491Q240 516 257 533T300 550Q325 550 342 533T360 491Q360 466 343 449T300 432Q275 432 258 449ZM175 -179T110 -130T45 4Q45 56 72 93T157 171Q198 201 216 218T242
257T250 315V335H348V314Q348 253 325 213T248 134Q207 105 188 89T157 52T145 4Q145 -42 180 -68T284 -94Q385 -94 470 -54V-142Q384 -179 284 -179Q175 -179 110 -130Z" />
<glyph unicode="&#xc0;" glyph-name="Agrave" horiz-adv-x="746" d="M240 913H347L416 741H323L240 913ZM324 699H422L701 0H597L527 174H218L150 0H45L324 699ZM499 259L373 586L247 259H499Z" />
<glyph unicode="&#xc1;" glyph-name="Aacute" horiz-adv-x="746" d="M400 913H507L424 741H332L400 913ZM324 699H422L701 0H597L527 174H218L150 0H45L324 699ZM499 259L373 586L247 259H499Z" />
<glyph unicode="&#xc2;" glyph-name="Acircumflex" horiz-adv-x="746" d="M329 907H418L560 741H458L374 848L290 741H187L329 907ZM324 699H422L701 0H597L527 174H218L150 0H45L324 699ZM499 259L373 586L247 259H499Z" />
<glyph unicode="&#xc3;" glyph-name="Atilde" horiz-adv-x="746" d="M183 828Q214 871 281 871Q303 871 323 865T376 846Q403 834 423 828T466 821Q496 821 520 832T563 872V786Q533 744 466 744Q441 744 419 750T367 770Q338 782 320 788T281 794Q252 794 228
783T183 742V828ZM324 699H422L701 0H597L527 174H218L150 0H45L324 699ZM499 259L373 586L247 259H499Z" />
<glyph unicode="&#xc4;" glyph-name="Adieresis" horiz-adv-x="746" d="M236 741T219 758T201 799Q201 823 218 840T260 857Q283 857 300 840T317 799Q317 775 300 758T260 741Q236 741 219 758ZM463 741T446 758T428 799Q428 823 445 840T487 857Q510 857 527
840T544 799Q544 775 527 758T487 741Q463 741 446 758ZM324 699H422L701 0H597L527 174H218L150 0H45L324 699ZM499 259L373 586L247 259H499Z" />
<glyph unicode="&#xc5;" glyph-name="Aring" horiz-adv-x="746" d="M701 0H597L527 174H218L150 0H45L312 670Q287 685 272 711T257 769Q257 817 290 851T373 885Q421 885 455 851T489 769Q489 738 474 712T434 670L701 0ZM351 823T335 807T319 769Q319 746 335
730T373 714Q395 714 411 730T427 769Q427 791 411 807T373 823Q351 823 335 807ZM499 259L373 586L247 259H499Z" />
<glyph unicode="&#xc6;" glyph-name="AE" horiz-adv-x="922" d="M388 699H877V613H557V392H786V307H557V85H877V0H455V179H240L153 0H45L388 699ZM455 259V607H447L281 259H455Z" />
<glyph unicode="&#xc7;" glyph-name="Ccedilla" horiz-adv-x="710" d="M590 -2T469 -13L452 -56Q497 -62 520 -86T543 -151Q543 -195 507 -221T409 -248Q354 -248 327 -237L328 -179Q338 -184 354 -187T385 -190Q449 -190 449 -144Q449 -89 348 -89L377 -13Q279
-6 204 40T87 166T45 349Q45 458 92 541T223 669T415 714Q559 714 656 641V543Q569 620 424 620Q343 620 281 587T183 493T148 349Q148 267 183 205T281 110T424 77Q498 77 556 96T665 159V60Q590 -2 469 -13Z" />
<glyph unicode="&#xc8;" glyph-name="Egrave" horiz-adv-x="571" d="M164 926H271L340 754H247L164 926ZM65 699H526V613H167V392H435V307H167V85H526V0H65V699Z" />
<glyph unicode="&#xc9;" glyph-name="Eacute" horiz-adv-x="566" d="M301 913H408L325 741H233L301 913ZM65 699H526V613H167V392H435V307H167V85H526V0H65V699Z" />
<glyph unicode="&#xca;" glyph-name="Ecircumflex" horiz-adv-x="571" d="M236 913H325L467 747H365L281 854L197 747H94L236 913ZM65 699H526V613H167V392H435V307H167V85H526V0H65V699Z" />
<glyph unicode="&#xcb;" glyph-name="Edieresis" horiz-adv-x="571" d="M148 751T131 768T113 809Q113 833 130 850T172 867Q195 867 212 850T229 809Q229 785 212 768T172 751Q148 751 131 768ZM375 751T358 768T340 809Q340 833 357 850T399 867Q422 867 439
850T456 809Q456 785 439 768T399 751Q375 751 358 768ZM65 699H526V613H167V392H435V307H167V85H526V0H65V699Z" />
<glyph unicode="&#xcc;" glyph-name="Igrave" horiz-adv-x="236" d="M-12 913H95L164 741H71L-12 913ZM66 699H169V0H66V699Z" />
<glyph unicode="&#xcd;" glyph-name="Iacute" horiz-adv-x="236" d="M140 913H247L164 741H72L140 913ZM66 699H169V0H66V699Z" />
<glyph unicode="&#xce;" glyph-name="Icircumflex" horiz-adv-x="236" d="M73 907H162L304 741H202L118 848L34 741H-69L73 907ZM66 699H169V0H66V699Z" />
<glyph unicode="&#xcf;" glyph-name="Idieresis" horiz-adv-x="236" d="M-20 741T-37 758T-55 799Q-55 823 -38 840T4 857Q27 857 44 840T61 799Q61 775 44 758T4 741Q-20 741 -37 758ZM207 741T190 758T172 799Q172 823 189 840T231 857Q254 857 271 840T288
799Q288 775 271 758T231 741Q207 741 190 758ZM66 699H169V0H66V699Z" />
<glyph unicode="&#xd0;" glyph-name="Eth" horiz-adv-x="727" d="M89 310H25V388H89V699H314Q427 699 510 657T637 537T682 353Q682 179 582 90T300 0H89V310ZM299 88Q437 88 508 156T579 353Q579 472 509 541T315 611H192V388H376V310H192V88H299Z" />
<glyph unicode="&#xd1;" glyph-name="Ntilde" horiz-adv-x="686" d="M164 828Q195 871 262 871Q284 871 304 865T357 846Q384 834 404 828T447 821Q477 821 501 832T544 872V786Q514 744 447 744Q422 744 400 750T348 770Q319 782 301 788T262 794Q233 794 209
783T164 742V828ZM65 699H162L518 172V699H621V0H523L167 527V0H65V699Z" />
<glyph unicode="&#xd2;" glyph-name="Ograve" horiz-adv-x="826" d="M294 913H401L470 741H377L294 913ZM309 -15T225 30T93 159T45 349Q45 456 93 539T225 668T413 714Q517 714 601 668T733 539T781 349Q781 242 733 159T601 31T413 -15Q309 -15 225 30ZM487
77T547 110T643 205T678 349Q678 430 644 491T549 586T415 620Q340 620 280 587T184 492T148 349Q148 267 183 206T278 111T413 77Q487 77 547 110Z" />
<glyph unicode="&#xd3;" glyph-name="Oacute" horiz-adv-x="826" d="M434 913H541L458 741H366L434 913ZM309 -15T225 30T93 159T45 349Q45 456 93 539T225 668T413 714Q517 714 601 668T733 539T781 349Q781 242 733 159T601 31T413 -15Q309 -15 225 30ZM487
77T547 110T643 205T678 349Q678 430 644 491T549 586T415 620Q340 620 280 587T184 492T148 349Q148 267 183 206T278 111T413 77Q487 77 547 110Z" />
<glyph unicode="&#xd4;" glyph-name="Ocircumflex" horiz-adv-x="826" d="M369 907H458L600 741H498L414 848L330 741H227L369 907ZM309 -15T225 30T93 159T45 349Q45 456 93 539T225 668T413 714Q517 714 601 668T733 539T781 349Q781 242 733 159T601 31T413
-15Q309 -15 225 30ZM487 77T547 110T643 205T678 349Q678 430 644 491T549 586T415 620Q340 620 280 587T184 492T148 349Q148 267 183 206T278 111T413 77Q487 77 547 110Z" />
<glyph unicode="&#xd5;" glyph-name="Otilde" horiz-adv-x="826" d="M223 828Q254 871 321 871Q343 871 363 865T416 846Q443 834 463 828T506 821Q536 821 560 832T603 872V786Q573 744 506 744Q481 744 459 750T407 770Q378 782 360 788T321 794Q292 794 268
783T223 742V828ZM309 -15T225 30T93 159T45 349Q45 456 93 539T225 668T413 714Q517 714 601 668T733 539T781 349Q781 242 733 159T601 31T413 -15Q309 -15 225 30ZM487 77T547 110T643 205T678 349Q678 430 644 491T549 586T415 620Q340 620 280 587T184 492T148
349Q148 267 183 206T278 111T413 77Q487 77 547 110Z" />
<glyph unicode="&#xd6;" glyph-name="Odieresis" horiz-adv-x="826" d="M276 741T259 758T241 799Q241 823 258 840T300 857Q323 857 340 840T357 799Q357 775 340 758T300 741Q276 741 259 758ZM503 741T486 758T468 799Q468 823 485 840T527 857Q550 857 567
840T584 799Q584 775 567 758T527 741Q503 741 486 758ZM309 -15T225 30T93 159T45 349Q45 456 93 539T225 668T413 714Q517 714 601 668T733 539T781 349Q781 242 733 159T601 31T413 -15Q309 -15 225 30ZM487 77T547 110T643 205T678 349Q678 430 644 491T549
586T415 620Q340 620 280 587T184 492T148 349Q148 267 183 206T278 111T413 77Q487 77 547 110Z" />
<glyph unicode="&#xd7;" glyph-name="multiply" horiz-adv-x="374" d="M187 243L104 160L46 217L129 301L45 385L103 443L186 359L271 444L329 385L244 300L328 217L271 159L187 243Z" />
<glyph unicode="&#xd8;" glyph-name="Oslash" horiz-adv-x="826" d="M236 25Q148 70 97 154T45 349Q45 456 93 539T225 668T413 714Q461 714 508 703L541 784H641L595 671Q682 626 731 542T781 349Q781 242 733 159T601 31T413 -15Q371 -15 323 -5L291 -86H191L236
25ZM472 614Q443 620 413 620Q338 620 278 587T183 492T148 349Q148 270 181 210T271 114L472 614ZM487 77T547 110T643 205T678 349Q678 426 646 485T559 580L358 82Q380 77 413 77Q487 77 547 110Z" />
<glyph unicode="&#xd9;" glyph-name="Ugrave" horiz-adv-x="697" d="M224 913H331L400 741H307L224 913ZM206 -15T133 58T60 261V699H162V257Q162 168 212 123T349 77Q435 77 485 122T535 257V699H637V261Q637 133 564 59T349 -15Q206 -15 133 58Z" />
<glyph unicode="&#xda;" glyph-name="Uacute" horiz-adv-x="697" d="M363 913H470L387 741H295L363 913ZM206 -15T133 58T60 261V699H162V257Q162 168 212 123T349 77Q435 77 485 122T535 257V699H637V261Q637 133 564 59T349 -15Q206 -15 133 58Z" />
<glyph unicode="&#xdb;" glyph-name="Ucircumflex" horiz-adv-x="697" d="M304 907H393L535 741H433L349 848L265 741H162L304 907ZM206 -15T133 58T60 261V699H162V257Q162 168 212 123T349 77Q435 77 485 122T535 257V699H637V261Q637 133 564 59T349 -15Q206
-15 133 58Z" />
<glyph unicode="&#xdc;" glyph-name="Udieresis" horiz-adv-x="697" d="M211 741T194 758T176 799Q176 823 193 840T235 857Q258 857 275 840T292 799Q292 775 275 758T235 741Q211 741 194 758ZM438 741T421 758T403 799Q403 823 420 840T462 857Q485 857 502
840T519 799Q519 775 502 758T462 741Q438 741 421 758ZM206 -15T133 58T60 261V699H162V257Q162 168 212 123T349 77Q435 77 485 122T535 257V699H637V261Q637 133 564 59T349 -15Q206 -15 133 58Z" />
<glyph unicode="&#xdd;" glyph-name="Yacute" horiz-adv-x="700" d="M355 926H462L379 754H287L355 926ZM299 265L45 699H154L349 362L547 699H655L398 265V0H299V265Z" />
<glyph unicode="&#xde;" glyph-name="Thorn" horiz-adv-x="603" d="M65 699H167V561H340Q454 561 516 509T578 350Q578 244 516 193T340 141H167V0H65V699ZM323 226Q394 226 434 252T475 350Q475 422 435 448T323 475H167V226H323Z" />
<glyph unicode="&#xdf;" glyph-name="germandbls" horiz-adv-x="633" d="M278 -15T233 4V98Q278 77 349 77Q412 77 448 115T485 216Q485 337 333 337H283V423H326Q377 423 403 453T429 537Q429 588 395 619T301 650Q162 650 162 510V0H60V504Q60 619 122 681T300
744Q377 744 429 715T506 639T532 537Q532 486 510 446T448 386Q516 370 552 323T588 202Q588 104 531 45T365 -15Q278 -15 233 4Z" />
<glyph unicode="&#xe0;" glyph-name="agrave" horiz-adv-x="569" d="M171 706H278L347 534H254L171 706ZM150 -15T98 29T45 150Q45 230 95 273T239 317Q338 317 407 277V302Q407 359 373 386T264 414Q220 414 179 406T104 382V464Q134 478 182 486T275 495Q394
495 451 443T509 297V0H414V54Q383 20 341 3T237 -15Q150 -15 98 29ZM310 62T349 81T407 134V199Q342 241 262 241Q204 241 176 219T147 150Q147 62 262 62Q310 62 349 81Z" />
<glyph unicode="&#xe1;" glyph-name="aacute" horiz-adv-x="569" d="M305 706H412L329 534H237L305 706ZM150 -15T98 29T45 150Q45 230 95 273T239 317Q338 317 407 277V302Q407 359 373 386T264 414Q220 414 179 406T104 382V464Q134 478 182 486T275 495Q394
495 451 443T509 297V0H414V54Q383 20 341 3T237 -15Q150 -15 98 29ZM310 62T349 81T407 134V199Q342 241 262 241Q204 241 176 219T147 150Q147 62 262 62Q310 62 349 81Z" />
<glyph unicode="&#xe2;" glyph-name="acircumflex" horiz-adv-x="569" d="M249 700H338L480 534H378L294 641L210 534H107L249 700ZM150 -15T98 29T45 150Q45 230 95 273T239 317Q338 317 407 277V302Q407 359 373 386T264 414Q220 414 179 406T104 382V464Q134
478 182 486T275 495Q394 495 451 443T509 297V0H414V54Q383 20 341 3T237 -15Q150 -15 98 29ZM310 62T349 81T407 134V199Q342 241 262 241Q204 241 176 219T147 150Q147 62 262 62Q310 62 349 81Z" />
<glyph unicode="&#xe3;" glyph-name="atilde" horiz-adv-x="569" d="M110 620Q141 663 208 663Q230 663 250 657T303 638Q330 626 350 620T393 613Q423 613 447 624T490 664V578Q460 536 393 536Q368 536 346 542T294 562Q265 574 247 580T208 586Q179 586 155
575T110 534V620ZM150 -15T98 29T45 150Q45 230 95 273T239 317Q338 317 407 277V302Q407 359 373 386T264 414Q220 414 179 406T104 382V464Q134 478 182 486T275 495Q394 495 451 443T509 297V0H414V54Q383 20 341 3T237 -15Q150 -15 98 29ZM310 62T349 81T407
134V199Q342 241 262 241Q204 241 176 219T147 150Q147 62 262 62Q310 62 349 81Z" />
<glyph unicode="&#xe4;" glyph-name="adieresis" horiz-adv-x="569" d="M151 530T134 547T116 588Q116 612 133 629T175 646Q198 646 215 629T232 588Q232 564 215 547T175 530Q151 530 134 547ZM378 530T361 547T343 588Q343 612 360 629T402 646Q425 646 442
629T459 588Q459 564 442 547T402 530Q378 530 361 547ZM150 -15T98 29T45 150Q45 230 95 273T239 317Q338 317 407 277V302Q407 359 373 386T264 414Q220 414 179 406T104 382V464Q134 478 182 486T275 495Q394 495 451 443T509 297V0H414V54Q383 20 341 3T237
-15Q150 -15 98 29ZM310 62T349 81T407 134V199Q342 241 262 241Q204 241 176 219T147 150Q147 62 262 62Q310 62 349 81Z" />
<glyph unicode="&#xe5;" glyph-name="aring" horiz-adv-x="569" d="M252 535T219 568T185 651Q185 699 218 733T301 767Q349 767 383 733T417 651Q417 602 383 569T301 535Q252 535 219 568ZM323 596T339 612T355 651Q355 673 339 689T301 705Q279 705 263 689T247
651Q247 628 263 612T301 596Q323 596 339 612ZM150 -15T98 29T45 150Q45 230 95 273T239 317Q338 317 407 277V302Q407 359 373 386T264 414Q220 414 179 406T104 382V464Q134 478 182 486T275 495Q394 495 451 443T509 297V0H414V54Q383 20 341 3T237 -15Q150
-15 98 29ZM310 62T349 81T407 134V199Q342 241 262 241Q204 241 176 219T147 150Q147 62 262 62Q310 62 349 81Z" />
<glyph unicode="&#xe6;" glyph-name="ae" horiz-adv-x="972" d="M150 -15T98 29T45 150Q45 230 95 273T239 317Q338 317 407 277V302Q407 359 373 386T264 414Q220 414 179 406T104 382V464Q134 478 182 486T275 495Q407 495 467 415Q501 453 552 474T668 495Q751
495 809 464T897 377T927 250V200H507Q512 131 563 98T704 65Q751 65 797 73T880 96V15Q848 2 796 -6T692 -15Q544 -15 465 74Q426 31 372 8T241 -15Q150 -15 98 29ZM831 271Q829 339 787 376T667 414Q591 414 550 375T507 271H831ZM310 62T348 80T407 133V199Q342
241 262 241Q204 241 176 219T147 150Q147 62 262 62Q310 62 348 80Z" />
<glyph unicode="&#xe7;" glyph-name="ccedilla" horiz-adv-x="547" d="M446 -7T363 -13L346 -56Q391 -62 414 -86T437 -151Q437 -195 401 -221T303 -248Q248 -248 221 -237L222 -179Q232 -184 248 -187T279 -190Q343 -190 343 -144Q343 -89 242 -89L271 -12Q167
0 106 66T45 239Q45 318 79 375T176 464T320 495Q430 495 496 452V369Q431 414 330 414Q248 414 198 370T147 239Q147 153 197 109T328 65Q429 65 502 113V31Q446 -7 363 -13Z" />
<glyph unicode="&#xe8;" glyph-name="egrave" horiz-adv-x="608" d="M188 706H295L364 534H271L188 706ZM196 -15T121 51T45 239Q45 357 112 426T305 495Q388 495 446 464T533 377T563 250V200H141Q146 132 198 99T341 65Q387 65 434 73T517 96V15Q485 2 433 -6T329
-15Q196 -15 121 51ZM468 271Q466 339 424 376T303 414Q227 414 185 375T141 271H468Z" />
<glyph unicode="&#xe9;" glyph-name="eacute" horiz-adv-x="608" d="M319 706H426L343 534H251L319 706ZM196 -15T121 51T45 239Q45 357 112 426T305 495Q388 495 446 464T533 377T563 250V200H141Q146 132 198 99T341 65Q387 65 434 73T517 96V15Q485 2 433 -6T329
-15Q196 -15 121 51ZM468 271Q466 339 424 376T303 414Q227 414 185 375T141 271H468Z" />
<glyph unicode="&#xea;" glyph-name="ecircumflex" horiz-adv-x="608" d="M267 700H356L498 534H396L312 641L228 534H125L267 700ZM196 -15T121 51T45 239Q45 357 112 426T305 495Q388 495 446 464T533 377T563 250V200H141Q146 132 198 99T341 65Q387 65 434
73T517 96V15Q485 2 433 -6T329 -15Q196 -15 121 51ZM468 271Q466 339 424 376T303 414Q227 414 185 375T141 271H468Z" />
<glyph unicode="&#xeb;" glyph-name="edieresis" horiz-adv-x="608" d="M172 534T155 551T137 592Q137 616 154 633T196 650Q219 650 236 633T253 592Q253 568 236 551T196 534Q172 534 155 551ZM399 534T382 551T364 592Q364 616 381 633T423 650Q446 650 463
633T480 592Q480 568 463 551T423 534Q399 534 382 551ZM196 -15T121 51T45 239Q45 357 112 426T305 495Q388 495 446 464T533 377T563 250V200H141Q146 132 198 99T341 65Q387 65 434 73T517 96V15Q485 2 433 -6T329 -15Q196 -15 121 51ZM468 271Q466 339 424
376T303 414Q227 414 185 375T141 271H468Z" />
<glyph unicode="&#xec;" glyph-name="igrave" horiz-adv-x="232" d="M-13 706H94L163 534H70L-13 706ZM65 480H167V0H65V480Z" />
<glyph unicode="&#xed;" glyph-name="iacute" horiz-adv-x="232" d="M137 706H244L161 534H69L137 706ZM65 480H167V0H65V480Z" />
<glyph unicode="&#xee;" glyph-name="icircumflex" horiz-adv-x="232" d="M72 700H161L303 534H201L117 641L33 534H-70L72 700ZM65 480H167V0H65V480Z" />
<glyph unicode="&#xef;" glyph-name="idieresis" horiz-adv-x="232" d="M-21 534T-38 551T-56 592Q-56 616 -39 633T3 650Q26 650 43 633T60 592Q60 568 43 551T3 534Q-21 534 -38 551ZM206 534T189 551T171 592Q171 616 188 633T230 650Q253 650 270 633T287
592Q287 568 270 551T230 534Q206 534 189 551ZM65 480H167V0H65V480Z" />
<glyph unicode="&#xf0;" glyph-name="eth" horiz-adv-x="625" d="M219 -15T162 14T75 97T45 218Q45 324 111 386T295 448Q349 448 396 428T472 370Q467 494 424 560L278 491V558L381 606Q341 634 287 634Q260 634 227 630T175 618V701Q196 706 228 710T285 714Q400
714 467 647L580 701V634L504 598Q564 498 564 307Q564 202 530 130T436 22T298 -15Q219 -15 162 14ZM346 62T380 83T433 140T452 216Q452 260 432 295T378 349T301 369Q232 369 189 327T145 216Q145 147 188 105T301 62Q346 62 380 83Z" />
<glyph unicode="&#xf1;" glyph-name="ntilde" horiz-adv-x="600" d="M104 621Q135 664 202 664Q224 664 244 658T297 639Q324 627 344 621T387 614Q417 614 441 625T484 665V579Q454 537 387 537Q362 537 340 543T288 563Q259 575 241 581T202 587Q173 587 149
576T104 535V621ZM65 480H163V411Q197 454 246 474T350 495Q446 495 493 444T540 307V0H439V297Q439 414 327 414Q279 414 238 392T166 323V0H65V480Z" />
<glyph unicode="&#xf2;" glyph-name="ograve" horiz-adv-x="637" d="M200 706H307L376 534H283L200 706ZM237 -15T176 15T80 103T45 239Q45 316 79 374T175 463T318 495Q399 495 461 464T557 374T592 239Q592 161 558 104T461 16T318 -15Q237 -15 176 15ZM396
65T442 113T488 239Q488 320 442 367T318 414Q240 414 194 367T148 239Q148 161 194 113T318 65Q396 65 442 113Z" />
<glyph unicode="&#xf3;" glyph-name="oacute" horiz-adv-x="637" d="M330 706H437L354 534H262L330 706ZM237 -15T176 15T80 103T45 239Q45 316 79 374T175 463T318 495Q399 495 461 464T557 374T592 239Q592 161 558 104T461 16T318 -15Q237 -15 176 15ZM396
65T442 113T488 239Q488 320 442 367T318 414Q240 414 194 367T148 239Q148 161 194 113T318 65Q396 65 442 113Z" />
<glyph unicode="&#xf4;" glyph-name="ocircumflex" horiz-adv-x="655" d="M292 700H381L523 534H421L337 641L253 534H150L292 700ZM255 -15T194 15T98 103T63 239Q63 316 97 374T193 463T336 495Q417 495 479 464T575 374T610 239Q610 161 576 104T479 16T336
-15Q255 -15 194 15ZM414 65T460 113T506 239Q506 320 460 367T336 414Q258 414 212 367T166 239Q166 161 212 113T336 65Q414 65 460 113Z" />
<glyph unicode="&#xf5;" glyph-name="otilde" horiz-adv-x="651" d="M142 627Q173 670 240 670Q262 670 282 664T335 645Q362 633 382 627T425 620Q455 620 479 631T522 671V585Q492 543 425 543Q400 543 378 549T326 569Q297 581 279 587T240 593Q211 593 187
582T142 541V627ZM251 -15T190 15T94 103T59 239Q59 316 93 374T189 463T332 495Q413 495 475 464T571 374T606 239Q606 161 572 104T475 16T332 -15Q251 -15 190 15ZM410 65T456 113T502 239Q502 320 456 367T332 414Q254 414 208 367T162 239Q162 161 208 113T332
65Q410 65 456 113Z" />
<glyph unicode="&#xf6;" glyph-name="odieresis" horiz-adv-x="646" d="M190 534T173 551T155 592Q155 616 172 633T214 650Q237 650 254 633T271 592Q271 568 254 551T214 534Q190 534 173 551ZM417 534T400 551T382 592Q382 616 399 633T441 650Q464 650 481
633T498 592Q498 568 481 551T441 534Q417 534 400 551ZM246 -15T185 15T89 103T54 239Q54 316 88 374T184 463T327 495Q408 495 470 464T566 374T601 239Q601 161 567 104T470 16T327 -15Q246 -15 185 15ZM405 65T451 113T497 239Q497 320 451 367T327 414Q249
414 203 367T157 239Q157 161 203 113T327 65Q405 65 451 113Z" />
<glyph unicode="&#xf7;" glyph-name="divide" horiz-adv-x="409" d="M183 385T169 399T154 434Q154 456 168 470T204 485Q225 485 239 471T254 434Q254 413 240 399T204 385Q183 385 169 399ZM45 338H364V257H45V338ZM183 110T169 124T154 159Q154 181 168 195T204
210Q225 210 239 196T254 159Q254 138 240 124T204 110Q183 110 169 124Z" />
<glyph unicode="&#xf8;" glyph-name="oslash" horiz-adv-x="637" d="M176 15Q114 46 80 103T45 239Q45 316 79 374T175 463T318 495Q336 495 368 491L398 566H498L457 465Q521 434 556 376T592 239Q592 161 558 104T461 16T318 -15Q287 -15 266 -11L236 -86H136L176
15ZM336 413Q330 414 318 414Q240 414 194 367T148 239Q148 193 164 157T210 98L336 413ZM396 65T442 113T488 239Q488 287 472 323T424 383L297 66Q304 65 318 65Q396 65 442 113Z" />
<glyph unicode="&#xf9;" glyph-name="ugrave" horiz-adv-x="600" d="M174 706H281L350 534H257L174 706ZM159 -15T110 37T60 176V480H161V180Q161 65 276 65Q377 65 434 156V480H535V0H437V68Q403 25 357 5T256 -15Q159 -15 110 37Z" />
<glyph unicode="&#xfa;" glyph-name="uacute" horiz-adv-x="600" d="M314 706H421L338 534H246L314 706ZM159 -15T110 37T60 176V480H161V180Q161 65 276 65Q377 65 434 156V480H535V0H437V68Q403 25 357 5T256 -15Q159 -15 110 37Z" />
<glyph unicode="&#xfb;" glyph-name="ucircumflex" horiz-adv-x="600" d="M248 700H337L479 534H377L293 641L209 534H106L248 700ZM159 -15T110 37T60 176V480H161V180Q161 65 276 65Q377 65 434 156V480H535V0H437V68Q403 25 357 5T256 -15Q159 -15 110 37Z" />
<glyph unicode="&#xfc;" glyph-name="udieresis" horiz-adv-x="600" d="M159 534T142 551T124 592Q124 616 141 633T183 650Q206 650 223 633T240 592Q240 568 223 551T183 534Q159 534 142 551ZM386 534T369 551T351 592Q351 616 368 633T410 650Q433 650 450
633T467 592Q467 568 450 551T410 534Q386 534 369 551ZM159 -15T110 37T60 176V480H161V180Q161 65 276 65Q377 65 434 156V480H535V0H437V68Q403 25 357 5T256 -15Q159 -15 110 37Z" />
<glyph unicode="&#xfd;" glyph-name="yacute" horiz-adv-x="587" d="M309 708H416L333 536H241L309 708ZM113 -198T77 -187V-108Q103 -118 141 -118Q176 -118 196 -101T232 -44L255 12L45 480H149L309 111L458 480H562L346 -54Q316 -129 275 -163T167 -198Q113
-198 77 -187Z" />
<glyph unicode="&#xfe;" glyph-name="thorn" horiz-adv-x="660" d="M65 699H166V416Q200 454 251 474T363 495Q435 495 492 464T582 375T615 241Q615 166 583 108T493 17T363 -15Q303 -15 251 5T166 64V-219H65V699ZM389 65T428 87T490 149T513 241Q513 292 491
331T429 392T340 414Q278 414 232 382T166 294V186Q183 131 231 98T340 65Q389 65 428 87Z" />
<glyph unicode="&#xff;" glyph-name="ydieresis" horiz-adv-x="587" d="M172 534T155 551T137 592Q137 616 154 633T196 650Q219 650 236 633T253 592Q253 568 236 551T196 534Q172 534 155 551ZM399 534T382 551T364 592Q364 616 381 633T423 650Q446 650 463
633T480 592Q480 568 463 551T423 534Q399 534 382 551ZM113 -198T77 -187V-108Q103 -118 141 -118Q176 -118 196 -101T232 -44L255 12L45 480H149L309 111L458 480H562L346 -54Q316 -129 275 -163T167 -198Q113 -198 77 -187Z" />
<glyph unicode="&#x2013;" glyph-name="endash" horiz-adv-x="646" d="M45 339H601V256H45V339Z" />
<glyph unicode="&#x2014;" glyph-name="emdash" horiz-adv-x="791" d="M45 339H746V256H45V339Z" />
<glyph unicode="&#x2018;" glyph-name="quoteleft" horiz-adv-x="253" d="M123 714H208L142 519H45L123 714Z" />
<glyph unicode="&#x2019;" glyph-name="quoteright" horiz-adv-x="256" d="M111 714H211L132 519H45L111 714Z" />
<glyph unicode="&#x201a;" glyph-name="quotesinglbase" horiz-adv-x="256" d="M111 71H211L132 -124H45L111 71Z" />
<glyph unicode="&#x201c;" glyph-name="quotedblleft" horiz-adv-x="410" d="M124 714H206L139 519H45L124 714ZM283 714H365L299 519H204L283 714Z" />
<glyph unicode="&#x201d;" glyph-name="quotedblright" horiz-adv-x="410" d="M111 714H206L127 519H45L111 714ZM270 714H365L286 519H204L270 714Z" />
<glyph unicode="&#x201e;" glyph-name="quotedblbase" horiz-adv-x="410" d="M111 71H206L127 -124H45L111 71ZM270 71H365L286 -124H204L270 71Z" />
<glyph unicode="&#x2022;" glyph-name="bullet" horiz-adv-x="265" d="M95 210T70 235T45 297Q45 334 70 359T132 385Q169 385 194 360T220 297Q220 260 195 235T132 210Q95 210 70 235Z" />
<glyph unicode="&#x2039;" glyph-name="guilsinglleft" horiz-adv-x="372" d="M45 308V338L277 535L327 471L151 323L327 176L277 112L45 308Z" />
<glyph unicode="&#x203a;" glyph-name="guilsinglright" horiz-adv-x="372" d="M45 176L221 323L45 471L95 535L327 338V308L95 112L45 176Z" />
</font>
</defs>
</svg>
